#TITLE:Popipo;
#SUBTITLE:;
#ARTIST:Hatsune Miku;
#TITLETRANSLIT:;
#SUBTITLETRANSLIT:;
#ARTISTTRANSLIT:;
#CREDIT:;
#BANNER:Hatsune Miku - Popipo-banner.jpg;
#BACKGROUND:Hatsune Miku - Popipo-bg.jpg;
#LYRICSPATH:Hatsune Miku - Popipo.lrc;
#CDTITLE:CDTitle.png;
#MUSIC:Hatsune Miku - Popipo.ogg;
#OFFSET:-0.020;
#SAMPLESTART:48.020;
#SAMPLELENGTH:12.000;
#SELECTABLE:YES;
#BPMS:0.000=150.000;
#STOPS:;
#BGCHANGES:251.000=Hatsune Miku - Popipo-bg.jpg=1.000=0=0=1,
99999=-nosongbg-=1.000=0=0=0 // don't automatically add -songbackground-
;
// cache tags:
#FIRSTBEAT:8.000;
#LASTBEAT:251.000;
#SONGFILENAME:songs/Vocaloid Party/Hatsune Miku - Popipo/Hatsune Miku - Popipo.sm;
#HASMUSIC:1;
#HASBANNER:1;
#MUSICLENGTH:105.093;
// end cache tags

//---------------dance-single - ----------------
#NOTES:
     dance-single:
     :
     Challenge:
     11:
     0.939,0.896,0.571,0.171,0.937,612.000,60.000,18.000,73.000,0.000:

0000
0000
0000
0000
,
0000
0000
0000
0000
,
1000
0000
0001
0100
0000
0100
0001
0000
0100
0000
0010
0000
1000
0000
0000
0000
,
0010
0000
0100
0001
0000
0001
0100
0000
0010
0000
1000
0000
0100
0000
0000
0000
,
0010
0000
0100
1000
0000
1000
0100
0000
0010
0000
0001
0000
1000
0000
0000
0000
,
0010
0000
0100
0010
0000
0010
0100
0000
0001
0100
0001
1000
0001
0000
0010
0100
,
1000
0100
0010
0001
0100
0010
1000
0010
0000
0100
0010
0000
1000
0100
0010
0000
,
0001
1000
0010
1000
0100
0010
0001
0010
0000
0100
1000
0000
0010
0100
0001
0000
,
1000
0010
1000
0100
1000
0001
1000
0001
0000
0010
0001
0000
0100
0010
1000
0000
,
0001
0010
0100
1000
0100
1000
0100
0010
0000
0001
0010
0000
0001
1000
0010
0100
,
0001
0000
1000
0010
0000
0010
0100
0000
0002
0000
2003
0000
3100
0M00
0010
0000
,
0100
0000
0001
1000
0000
1000
0010
0000
2000
0000
3002
0000
0103
0M00
1000
0000
,
0010
0000
1000
0100
0000
0100
0010
0000
0002
0000
0023
0000
0130
0M00
0001
0000
,
0100
0000
0010
1000
0000
1000
0100
0000
0020
0000
0031
0000
0011
0000
0000
0000
,
10MM
M000
1000
M000
100M
M000
1010
0000
100M
0010
0000
0110
M00M
0000
0100
0000
,
M0M1
000M
0001
000M
M001
000M
0011
0000
M001
0100
0000
0200
M00M
0000
0301
0000
,
01M0
0M00
0100
0M00
01M0
0M00
0101
0000
01M0
0001
0000
1001
0MM0
0000
1000
0000
,
0M1M
00M0
0010
00M0
0M10
00M0
101M
0000
1M00
0001
0000
0002
MM00
0000
1003
0010
,
0100
0000
0101
0000
0110
0000
1010
0000
0010
1000
0000
1000
0010
0100
0010
0000
,
1010
0000
0011
0000
0101
0000
1100
0000
0100
0001
0010
0100
1000
0000
0010
0000
,
0110
0000
0011
0000
0110
0000
1100
0000
0010
0100
0000
0100
1000
0100
0010
0000
,
1001
0000
0101
0000
1001
0000
1010
0000
0010
0100
0001
0010
0100
0000
1000
0010
,
0100
0000
0001
0000
1010
0000
0001
0000
1000
0100
0010
0001
0000
0000
1000
0000
,
0101
0000
0010
0000
0001
0010
0100
0010
0100
0000
1000
0000
0010
0100
0001
0000
,
0101
0000
0010
0000
0110
0000
0001
0000
1000
0010
0000
0100
0010
0000
0010
0000
,
1000
0000
0001
0000
0100
0000
0010
0000
1000
0001
0100
0000
0001
0010
0100
0010
,
0001
0000
1000
0000
0010
0000
1100
0000
1010
0000
0010
0100
0000
0001
0010
0000
,
0002
0000
2003
0000
3200
0000
0320
0000
M13M
0000
0000
M11M
0000
0000
M1M0
0000
,
1100
0000
0110
0000
0011
0000
0110
0000
0010
0001
0100
0000
0010
0000
1000
0000
,
0100
1000
0100
0010
0100
1000
010M
0000
0020
0000
0230
0000
1300
0001
0010
0100
,
1000
0000
0001
0000
0100
0000
0010
0000
1000
0010
0100
0001
0010
0001
0100
0000
,
0010
0000
1000
0000
0010
0000
0100
0000
0011
0001
0000
0000
1010
0010
0000
0000
,
0100
0000
1000
0000
0100
0000
0001
0000
0100
0001
0010
0100
1000
0010
0100
0000
,
0010
0100
0001
0100
0001
0000
0010
0000
0100
0010
0100
1000
0100
0000
1000
0010
,
0100
0000
0010
0000
0001
0000
0010
0000
1000
0100
0010
0001
0100
0010
1000
0000
,
0100
0000
1000
0000
0100
0000
0010
0000
0110
0010
0000
0000
0101
0100
0000
0000
,
0010
0000
0001
0000
0010
0000
1000
0000
0010
1000
0010
1000
0100
1000
0010
0000
,
0100
0001
0100
0010
1000
0000
0001
0000
0100
0001
0010
0001
1000
0000
0010
0100
,
0001
0000
0100
0000
0001
1000
0001
0000
0110
0000
1010
0000
0001
0000
0010
0000
,
0001
1000
0010
0000
1000
0100
1000
0100
0010
0000
0001
0000
0010
0100
0010
0000
,
0001
0000
1000
0000
0001
0100
0001
0000
1001
0000
1000
0100
0010
0001
1000
0000
,
0001
0000
0010
0000
0100
1000
0001
1000
0001
0000
0010
0000
1001
0000
0100
0010
,
1000
0000
0010
0000
1000
0010
0100
0000
0001
0000
0100
0000
0010
0000
0001
0010
,
0100
0000
0010
0000
1000
0000
0100
0010
0100
0000
0000
0001
0100
0000
1000
0000
,
0010
0100
1010
1100
0011
1010
0210
0000
,
0304
1000
0000
1000
0000
1000
0003
1000
0001
0000
0010
0101
0000
0000
1010
0000
,
1000
0000
0100
0001
0000
0001
0100
0000
1000
0100
0010
0001
0100
0000
0001
1000
,
0100
0000
0010
0100
0000
0100
1000
0000
0010
1000
0001
0100
0010
1000
0001
0000
,
1010
0000
1000
0000
1100
0000
0100
0000
0010
0001
0100
0010
1000
0000
0010
0000
,
100M
0000
M010
0100
000M
0010
1M00
0000
01M0
0000
M100
0000
0M10
0001
1000
0010
,
0100
0000
0010
1000
0000
0001
0100
0000
0020
0000
1030
0000
1010
0000
M0M0
0000
,
0100
0000
0001
1000
0000
0100
0010
0000
0002
0000
0013
0000
0011
0000
0000
0000
,
1000
0100
1000
0001
0010
0000
0001
0000
0100
0000
0010
0000
1000
0000
0001
0000
,
0M10
0000
00M1
0100
M000
0010
1M00
0000
M100
0000
0M10
0000
00M1
1000
0100
0010
,
0100
0000
0001
0100
0000
0100
0001
0000
0100
1000
0010
1000
0100
0000
1000
0001
,
0100
0000
0001
0010
0000
0010
0100
0000
1000
0100
1000
0010
0100
0001
1000
0000
,
0110
0000
0010
0000
0101
0000
0100
0000
0010
1000
0001
0100
0010
0000
1000
0000
,
01M0
0000
100M
0100
00M0
1000
0M10
0000
100M
0000
10M0
0000
M010
0100
0010
1000
,
0001
0000
0100
1000
0000
1000
0100
0000
0010
0000
1010
0000
0110
0000
0100
0000
,
0010
0000
1000
0010
0000
0100
0001
0000
0110
0000
1MM1
0000
0110
0000
0MM0
0000
,
1000
0000
0100
0000
1000
0000
0010
0000
0100
0010
0000
0010
0100
0000
0001
0000
,
0010
0000
0001
0010
0100
0000
0010
0000
0001
0000
1000
0100
0010
0000
0001
0000
,
1000
0010
0100
0001
0100
0000
0010
0000
0100
0001
0010
0000
1001
0000
0000
0000
;

//---------------dance-single - ----------------
#NOTES:
     dance-single:
     :
     Hard:
     8:
     0.715,0.746,0.095,0.666,0.309,443.000,10.000,70.000,22.000,3.000:
0000
0000
0000
0000
,
0000
0000
0000
0000
,
1000
0000
0001
0100
0000
0001
0100
0000
0001
0000
0010
0000
0100
0000
0000
0000
,
0010
0000
0100
1000
0000
0100
1000
0000
0010
0000
0100
0000
0001
0000
0000
0000
,
0100
0000
0001
0010
0000
0001
0010
0000
0100
0000
1000
0000
0001
0000
0000
0000
,
1000
0000
0010
1000
0000
0010
1000
0000
0010
0000
0100
0000
0001
0000
0000
0000
,
0100
0001
0100
0001
0010
0100
1000
0010
,
0100
0001
1000
0001
0010
0001
0011
0000
,
1000
0010
0100
0010
1000
0001
0100
0010
,
1000
0100
0010
0001
0100
0001
0101
0000
,
0001
0000
0100
0010
0000
1000
0100
0000
2000
0000
0000
0000
3010
0000
0100
0000
,
0001
0000
0010
0100
0000
1000
0001
0000
0200
0000
0000
0000
0301
0000
0010
0000
,
0100
0000
1000
0010
0000
0100
0001
0000
0020
0000
0000
0000
0130
0000
1000
0000
,
0010
0000
0100
0001
0000
0100
0010
0000
2000
0000
0000
0000
3001
0000
000M
0000
,
0001
0000
0010
0000
0100
0000
1000
0000
0010
1000
0000
0010
0000
0000
1000
0000
,
0100
0000
0010
0000
0001
0000
0100
0000
0001
0100
0000
0001
0000
0000
0100
0000
,
0001
0000
0100
0000
0010
0000
0100
0000
0010
0100
0000
0010
0000
0000
1000
0000
,
0010
0000
0100
0000
0001
0000
0010
0000
0100
1000
0000
0100
0000
0000
1000
0000
,
0020
0230
0302
0203
0310
0010
0010
0010
,
2000
0000
3002
0000
0203
0000
0320
0000
1030
0100
0000
0010
0000
0000
0100
0000
,
0020
0032
2003
3002
0103
0100
0100
0100
,
0020
0000
2030
0000
3002
0000
0203
0000
0310
1000
0000
0010
0000
0000
0100
0000
,
0001
0000
0010
0100
0000
1000
0010
0000
1000
0000
0001
0000
0100
0000
0010
0000
,
1000
0001
0200
0000
0320
0000
1030
0000
,
1000
0000
0010
0000
0100
0000
0001
0000
1000
0001
0000
0100
0000
0000
0010
0000
,
1000
0001
0100
0010
2200
0000
0001
3300
,
1000
0000
0001
0000
0010
0000
0001
0000
0100
0000
0010
0100
0000
0000
0001
0000
,
1000
0100
0020
0000
0001
000M
0030
0000
,
1000
0100
1000
0010
0100
0001
0100
0010
,
1000
0000
0001
0010
0000
0001
0010
0000
0100
0000
1000
0010
0000
1000
0010
0000
,
0200
0010
03M0
0001
1000
0010
0100
0001
,
2000
0100
3M00
0010
0100
0001
0100
0001
,
0020
0001
003M
0100
1000
0010
0100
0010
,
2000
0001
300M
0010
0100
0001
0100
0010
,
2000
0000
0001
0000
3001
0000
0100
0000
0010
2000
0000
0010
0000
0000
3010
0000
,
0200
0000
0001
0000
0310
0000
1000
0000
0001
0200
0000
0010
0000
0000
0301
0000
,
0020
0000
0100
0000
0130
0000
1000
0000
0100
0020
0000
0100
0000
0000
0130
0000
,
1000
0010
1000
0010
0100
0101
0001
0011
,
2000
0000
3002
0000
0203
0320
0000
2030
,
3002
2003
3200
0320
0200
0000
1001
0000
,
2330
0000
3002
0000
2003
3020
0000
0230
,
0320
2030
3020
0000
0230
0000
0310
0100
,
0002
0000
0023
0000
0032
0203
0000
0302
,
0203
0320
2030
3002
2003
0100
0020
0000
,
3030
0000
0100
0010
1000
0010
0100
0000
,
0001
0000
1000
0001
0000
1000
0001
0000
0100
0000
0000
0010
0000
0000
1000
0000
,
0010
0100
0010
1000
0001
0100
0010
MMMM
,
0100
0010
1000
0010
0100
0001
0100
MMMM
,
0001
0000
0100
0000
0010
0100
0001
0100
,
0020
4000
0000
0000
0000
0000
0000
3030
0010
0000
0100
0000
0001
0010
0100
0000
,
1000
0000
0010
1000
0000
0010
0100
0000
0020
0000
1000
0000
0130
0000
0000
0000
,
0001
0000
0100
0010
0000
1000
0100
0000
2000
0000
0001
0000
3100
0000
0000
0000
,
0010
0000
0001
0000
0100
0010
0100
0001
,
0200
0040
0000
0000
0000
0000
0000
0330
0100
0000
0001
0000
0010
0100
1000
0000
,
0010
0000
1000
0000
0001
0000
0100
0000
0010
1000
0010
0000
0100
0000
MMMM
0000
,
0010
0000
1000
0000
0001
0000
0010
0000
0100
1000
0100
0000
1000
0000
MMMM
0000
,
0010
0000
1000
0000
0001
0100
0010
1000
,
0002
4000
0000
0000
0000
0000
0000
3003
0001
0000
1000
0000
0001
0100
0010
0000
,
1000
0000
0100
1000
0000
0001
0100
0000
0010
0000
1000
0000
1001
0000
0000
0000
,
0001
0000
0100
0010
0000
0100
0001
0000
1000
0000
0010
0000
0110
0000
0000
0000
,
1000
0100
0010
0001
0010
0100
1000
0000
,
0001
0000
0010
0100
0000
0000
1000
0000
0001
0000
0100
0010
0000
0000
1000
0000
,
0010
0100
0010
0000
1000
0000
0001
0000
0101
0000
0100
0000
0101
0000
0000
0000
;

//---------------dance-single - ----------------
#NOTES:
     dance-single:
     :
     Medium:
     6:
     0.519,0.627,0.219,0.086,0.024,350.000,23.000,9.000,0.000,0.000:
0000
0000
0000
0000
,
0000
0000
0000
0000
,
1000
0000
0001
0000
1000
0001
1000
0000
,
0010
0000
1000
0000
0010
1000
0010
0000
,
0100
0000
0001
0000
0100
0001
0100
0000
,
0001
0000
0010
0000
0001
0010
0001
0000
,
0100
0010
0100
0000
0001
0100
0010
0000
,
0100
0010
0100
0001
0100
0000
0101
0000
,
0100
0010
0100
0000
0001
0010
0100
0000
,
1000
0100
0010
0100
0010
0000
0110
0000
,
0001
1000
0100
0000
1000
0001
0100
0000
,
0010
0100
0001
0100
0010
0000
0110
0000
,
1000
0001
0100
0000
0001
1000
0100
0000
,
0010
0001
1000
0010
1000
0000
1010
0000
,
1000
0000
0001
0000
0100
0010
1000
0000
,
0100
0000
1000
0000
0100
0010
0001
0000
,
0100
0000
0010
0000
1000
0001
0100
0000
,
0010
0000
1000
0000
0010
0100
0010
1000
,
0010
0000
1010
0000
1000
0001
0100
0000
,
0010
0000
1010
0000
0100
0001
0100
0000
,
0001
0000
1001
0000
0001
1000
0010
0000
,
0100
0000
0101
0000
0010
1000
0001
0100
,
0010
0000
1000
0000
0001
1000
0001
0000
,
1000
0100
0010
0100
1000
0000
1010
0000
,
1000
0000
0100
0000
0010
0001
0100
0000
,
0010
1000
0010
0000
0100
0000
0010
1000
,
0100
0000
1000
0000
0100
1000
0010
0000
,
1000
0001
1000
0001
1000
0000
1001
0000
,
0010
1000
0100
0010
0100
0000
1000
0000
,
0010
0000
0000
0010
0000
0000
0010
0000
1000
0000
0000
1000
0000
0000
1000
0000
,
0010
0000
1000
0010
0100
0000
0010
0000
,
0100
0010
1000
0000
1010
0000
1010
0000
,
1000
0000
0001
0010
0001
0000
0100
0000
,
0001
0010
0100
0010
0000
0001
0100
0010
,
1000
0000
0010
1000
0020
0000
1030
0000
,
0001
0100
0001
0000
0101
0000
0110
0000
,
1000
0000
0001
0100
0020
0000
0130
0000
,
0001
0100
0010
0100
0000
0001
1000
0100
,
0010
0000
0001
0000
0100
0001
0010
0000
,
0001
0100
0001
0100
0001
0100
0001
0000
,
1000
0000
0001
0000
0100
0010
0100
0000
,
0010
1000
0010
1000
0010
1000
0010
0000
,
1000
0000
0010
0000
0100
0010
0000
0100
,
0010
0100
0010
0100
0010
0000
1000
0000
,
0100
0000
0010
0001
0100
0001
0010
0000
,
0001
0000
0000
1000
0000
0000
0001
0000
1001
0000
0000
1001
0000
0000
1001
0000
,
1000
0000
0001
0010
0100
1000
0010
0000
,
1000
0001
0100
0000
0110
0000
0110
0000
,
1000
0000
0001
0000
0100
0010
0100
0000
,
0001
1000
1000
1000
0001
1000
0001
0100
,
0010
0000
1000
0001
0100
0010
1000
0000
,
0010
1000
0010
0000
1001
0000
1001
0000
,
1000
0000
0100
0000
0010
0001
0010
0001
,
0020
0000
0000
0230
0000
0000
2300
0000
3200
0000
0320
0000
0230
0000
2300
0000
,
3010
0100
0001
0010
0100
0000
1001
0000
,
1000
0001
0100
0010
1000
0000
1010
0000
,
1000
0000
0100
0000
1000
0010
0100
0010
,
0100
0010
0010
0010
0100
0001
0100
0010
,
1000
0000
0100
1000
0100
0010
0100
0000
,
1000
0000
0001
0010
0001
0010
0100
0000
,
1000
0000
0100
0000
1000
0100
0010
0000
,
0001
0010
0100
0000
1000
0100
1000
0000
,
0010
0100
0010
1000
0010
0100
0010
0000
;

//---------------dance-single - ----------------
#NOTES:
     dance-single:
     :
     Easy:
     4:
     0.290,0.358,0.057,0.209,0.000,185.000,6.000,22.000,0.000,0.000:
0000
0000
0000
0000
,
0000
0000
0000
0000
,
1000
0000
0010
0100
,
0010
0000
0010
1000
,
0100
0000
0100
1000
,
0001
0000
0001
0010
,
0100
0000
1000
0100
,
0010
0000
0001
0100
,
0010
0000
1000
0001
,
0010
0001
0100
0010
,
0100
0000
0001
1000
,
0001
0000
1000
0100
,
1000
0000
0001
0100
,
0010
0000
1000
0000
0001
0000
0200
0300
,
0010
0100
0010
1000
,
0010
1000
0001
0100
,
0010
1000
0010
1000
,
0001
0100
0010
1000
,
1010
0010
2000
3001
,
0100
0010
2000
3001
,
0100
0010
2000
3001
,
0100
0001
2000
3001
,
0010
0000
0001
0000
,
1000
0100
0010
0000
,
0100
0000
1000
0000
,
0100
0010
0001
0011
,
0010
0000
0100
0000
,
1000
0010
0100
0000
,
0010
0000
0100
0000
,
0001
0010
0001
0010
,
0001
0000
0010
0100
,
0010
0000
0002
0013
,
0001
0000
1000
0100
,
0010
0000
0001
0010
,
0100
0000
1000
0100
,
1000
0000
0020
0130
,
0001
0000
0100
0010
,
1000
0000
0001
1000
,
0100
0000
0010
0000
,
0001
1000
0010
0100
,
0001
0000
0100
0000
,
0001
1000
0002
0103
,
0101
0000
0001
0000
,
1000
0100
1000
0100
,
0000
1000
0010
1000
,
2020
0000
0000
3030
1010
0000
0000
0000
,
1010
0000
1000
0000
,
0001
0000
0100
0010
,
1000
0000
0001
0000
,
0200
0000
0002
0300
0020
0003
0200
0330
,
1000
0000
0010
0000
,
0100
0000
0010
1000
,
0010
0000
0100
0000
,
0002
0000
0200
0003
0020
0300
2000
3030
,
0100
0000
1000
0000
,
0010
0000
1000
0001
,
1000
0000
0001
0000
,
0200
0000
0020
0300
2000
0030
0002
3003
,
0100
0000
0001
0000
,
1000
0000
0010
0100
,
0001
0000
0010
0000
,
0100
0000
0010
0000
,
0001
1000
0001
1000
;

//---------------dance-single - Blank----------------
#NOTES:
     dance-single:
     Blank:
     Beginner:
     1:
     0.098,0.179,0.019,0.038,0.000,66.000,2.000,4.000,0.000,0.000:
0000
0000
0000
0000
,
0000
0000
0000
0000
,
0000
0000
0000
0000
,
0000
0000
0000
0000
,
0000
0000
0000
0000
,
0000
0000
0000
0000
,
1000
0000
0000
0000
,
0001
0000
0000
0000
,
0100
0000
0000
0000
,
0001
0000
0000
0000
,
0110
0000
0000
0000
,
0001
0000
0000
0000
,
1000
0000
0000
0000
,
0010
0000
0000
0000
,
2000
0000
0000
0000
,
0000
0000
0000
0000
,
0000
0000
0000
0000
,
0000
0000
0000
0000
,
3001
0000
0000
0000
,
0100
0000
0000
0000
,
0010
0000
0000
0000
,
1000
0000
0000
0000
,
0010
0000
0000
0000
,
1000
0000
1000
0000
,
1000
0000
0000
0000
,
0100
0000
0000
0000
,
0010
0000
0000
0000
,
0001
0000
0001
0000
,
0001
0000
0000
0000
,
2000
0000
3002
0000
,
0103
0000
0000
0000
,
0001
0000
0000
0000
,
0100
0000
0000
0000
,
0010
0000
0000
0000
,
1000
0000
1000
0000
,
0010
0000
0010
0000
,
0100
0000
0100
0000
,
0001
0000
0001
0000
,
0001
0000
0000
0000
,
1000
0000
0000
0000
,
0001
0000
0000
0000
,
0100
0000
0000
0000
,
1001
0000
0000
0000
,
1000
0000
0000
0000
,
0010
0000
0000
0000
,
0100
0000
0100
0000
,
0100
0000
0000
0000
,
0010
0000
0000
0000
,
1000
0000
0000
0000
,
0010
0000
0010
0000
,
0010
0000
0000
0000
,
0100
0000
0000
0000
,
0010
0000
0000
0000
,
1000
0000
1000
0000
,
1000
0000
0000
0000
,
0001
0000
0000
0000
,
0100
0000
0000
0000
,
0001
0000
0001
0000
,
0001
0000
0000
0000
,
1000
0000
0000
0000
,
0010
0000
0000
0000
,
0100
0000
0000
0000
,
0002
0000
0000
1003
;
